Skip to main content

Infamous Stringdusters Live at CultureWorks on 2011-01-09




Infamous Stringdusters
CultureWorks
Ashland OR

Sunday January 09, 2011
2011-01-09

===========================================================================================================================================================
*********** 16 Bit version intended to burn direct to CD *********

Recorded and Mastered by ArchivalAudio [Ian Stoy]
ArchivalAudio [at] gmail [dot] com
===========================================================================================================================================================
FOB Audience
Master info:
Milab VM-44-links DINa (17cm@90°) > Archival Silver and Gold XLR's > Fostex FR2-LE (stock) 24 bit 48khz > Transcend CF 133x
12' from Stage Dead Center 10' up
===========================================================================================================================================================
Transfer, Editing & Mastering:
internal card reader > iMac 3.06 GHz i3/8GB OSX 10.6.6 > Wave Editor 1.46(Audiofile Engineering) [tracking- fades in & out] [normalize to -.09db] [wave editor format 32 bit 48khz] iZotope's MBIT+ dithering algorithm | iZotope 64-bit SRC algorithm > 16/44.1
export labels [tracks] as .wav > xACT 2.06 [Flac (level 8 )] fix sbe's [metadata]
===========================================================================================================================================================

Infamous Stringdusters:
Andy Hall - dobro
Andy Falco - guitar
Chris Pandolfi - banjo
Jeremy Garrett - fiddle
Jesse Cobb - mandolin
Travis Book - upright bass
Drew Becker - FOH engineer

Sunday
2011.01.09
CultureWorks!
Ashland OR

One Set


t01 Walk on Stage - tuning
t02 Steam Powered Aeroplane
t03 In God's Country
t04 No More To Leave You Behind & Jam
t05 17 Cents
t06 Chaco
t07 How Far I'd Fall For You
t08 Masquerade
t09 It'll Be Alright
t10 100 Years From Now
t11 Toy Rockets >
t12 Love One Another
t13 Keep On Trucking
t14 Need a Beer - interlude
t15 Stranger
t16 You Can't Stop The Changes
t17 Get It While You Can >
t18 Black Rock
t19 Grammy Nomination -interlude
t20 Uncle Pen
t21 Those Who've Gone On
t22 Pre Encore Crowd
=======Encore=======
t23 Hitchhiker
t24 end of show crowd chatter

===========================================================================================================================================================
Technical Notes:
Removed multiple "clap" transients manually by lowering the gain -2.5db on selected waveform transients.
Show Notes:
Thank you to Katrina for getting me on the list, a big thank you to Drew for being so helpful and mixing an awesome FOH sound!
CultureWorks is an all ages alcohol free venue, a wonderful space and great vibe. It is awesome that my wife and 5 month old son can easily attend shows with me there! But damn I wish I could have a beer there!

Enjoy

ArchivalAudio
~~~~~~~~~~~~~~~~~~~~~~~~~~~~~~~~~~~~~~~~~~~~~~~~~
Support bands that allow fan based recordings
Go see them live and buy their merchandise!

http://thestringdusters.com/


===========================================================================================================================================================
;flac fingerprints generated by xACT 2.06 on 2011-01-23 19:11:10 -0800

ISD2011-01-09.AA.VM44.t01.flac:e79d2f21a49c08e664d4d3fbf16b1ba7
ISD2011-01-09.AA.VM44.t02.flac:cca74e3e26d83677e754059456297e53
ISD2011-01-09.AA.VM44.t03.flac:d7349f8e95c070a6b54b489dbdd8452a
ISD2011-01-09.AA.VM44.t04.flac:1534d16dbc233507d051bb979bde0729
ISD2011-01-09.AA.VM44.t05.flac:ff8ad3d5f81d1f1f72a22a9ad7d283f9
ISD2011-01-09.AA.VM44.t06.flac:112809fe845ab520ed531013502da8d1
ISD2011-01-09.AA.VM44.t07.flac:ce37125f43b1a0e6e55c11382d2aabff
ISD2011-01-09.AA.VM44.t08.flac:d2f3994f5ff4f418b4892946b6016f62
ISD2011-01-09.AA.VM44.t09.flac:d4368176ad05e384a0633c44208fb77d
ISD2011-01-09.AA.VM44.t10.flac:01d035327aec242938954a053a23146d
ISD2011-01-09.AA.VM44.t11.flac:af08cb6d6f5b980412ca2775a4881e19
ISD2011-01-09.AA.VM44.t12.flac:0a506384ae5893bbd47e8c4c56931376
ISD2011-01-09.AA.VM44.t13.flac:dff1f187c62d517c482d2ce1415f8094
ISD2011-01-09.AA.VM44.t14.flac:179f7721ceb23e7b5bd001715380a927
ISD2011-01-09.AA.VM44.t15.flac:d19b5c09dde674b95d6f22376eb83b59
ISD2011-01-09.AA.VM44.t16.flac:95d473734ee07c17988a3cfe346793d1
ISD2011-01-09.AA.VM44.t17.flac:2901b0bc7f691184b1b382904173a106
ISD2011-01-09.AA.VM44.t18.flac:df49d5df590b6992dc46ec9c718eafd7
ISD2011-01-09.AA.VM44.t19.flac:65f002b38ca3db1899fae2cae308e319
ISD2011-01-09.AA.VM44.t20.flac:933aab16f2207d8b7fd2d1dbacde0132
ISD2011-01-09.AA.VM44.t21.flac:19e9ca23bf18bd8e13a495ee12512b99
ISD2011-01-09.AA.VM44.t22.flac:670574b245f7aefe10d7ec40bd4df1bc
ISD2011-01-09.AA.VM44.t23.flac:c50669e9bf3d080d6cd226fec4cfdaa5
ISD2011-01-09.AA.VM44.t24.flac:5a74a89986486bbe7a0b386bc693e57f

===========================================================================================================================================================
shntool output-len
length expanded size cdr WAVE problems fmt ratio filename
1:14.44 13157132 B --- -- ---xx flac 0.4463 ISD2011-01-09.AA.VM44.t01.flac
4:07.18 43613180 B --- -- ---xx flac 0.5447 ISD2011-01-09.AA.VM44.t02.flac
4:18.00 45511244 B --- -- ---xx flac 0.5338 ISD2011-01-09.AA.VM44.t03.flac
6:49.63 72295820 B --- -- ---xx flac 0.5434 ISD2011-01-09.AA.VM44.t04.flac
3:50.42 40670828 B --- -- ---xx flac 0.5284 ISD2011-01-09.AA.VM44.t05.flac
4:33.35 48239564 B --- -- ---xx flac 0.5329 ISD2011-01-09.AA.VM44.t06.flac
4:19.69 45849932 B --- -- ---xx flac 0.5480 ISD2011-01-09.AA.VM44.t07.flac
5:07.47 54265388 B --- -- ---xx flac 0.5051 ISD2011-01-09.AA.VM44.t08.flac
3:13.69 34207532 B --- -- ---xx flac 0.5383 ISD2011-01-09.AA.VM44.t09.flac
3:39.22 38683388 B --- -- ---xx flac 0.5469 ISD2011-01-09.AA.VM44.t10.flac
1:19.45 14041484 B --- -- ---xx flac 0.4712 ISD2011-01-09.AA.VM44.t11.flac
4:17.01 45337196 B --- -- ---xx flac 0.5495 ISD2011-01-09.AA.VM44.t12.flac
3:26.40 36432524 B --- -- ---xx flac 0.5689 ISD2011-01-09.AA.VM44.t13.flac
2:15.54 23941052 B --- -- ---xx flac 0.4503 ISD2011-01-09.AA.VM44.t14.flac
4:12.50 44570444 B --- -- ---xx flac 0.5307 ISD2011-01-09.AA.VM44.t15.flac
4:05.61 43361516 B --- -- ---xx flac 0.5547 ISD2011-01-09.AA.VM44.t16.flac
4:37.03 48869900 B --- -- ---xx flac 0.5493 ISD2011-01-09.AA.VM44.t17.flac
7:50.49 83023292 B --- -- ---xx flac 0.5591 ISD2011-01-09.AA.VM44.t18.flac
1:59.43 21092780 B --- -- ---xx flac 0.4767 ISD2011-01-09.AA.VM44.t19.flac
3:13.13 34075820 B --- -- ---xx flac 0.5507 ISD2011-01-09.AA.VM44.t20.flac
3:04.68 32617580 B --- -- ---xx flac 0.5776 ISD2011-01-09.AA.VM44.t21.flac
2:26.55 25883804 B --- -- ---xx flac 0.5392 ISD2011-01-09.AA.VM44.t22.flac
6:25.36 67998716 B --- -- ---xx flac 0.5484 ISD2011-01-09.AA.VM44.t23.flac
1:20.15 14147324 B --- -- ---xx flac 0.4693 ISD2011-01-09.AA.VM44.t24.flac
91:49.42 971887440 B 0.5372 (24 files)


===========================================================================================================================================================


Collection InfamousStringdusters
Band/Artist Infamous Stringdusters
Venue CultureWorks
Location Ashland OR

Source FOB Audience Master
Lineage Milab VM-44-links DINa (17cm@90°) > Fostex FR2-LE > Wave Editor 1.46 > xACT 2.06 FLAC16
Taped by ArchivalAudio
Transferred by ArchivalAudio

Notes

oops! the text file shows both Sunday and Saturday - I altered the above text to correctly state SUNDAY
the show was on Sunday, as I work Saturday nights - there for would not have been in attendance otherwise.

Reviews

Reviewer: dusterhead - - April 9, 2011
Subject: On the "Crest" of a wave...
This is a POWERFUL show!
Set List, performance and recording could not be better!
Thanks so much to those who labor through the process of bringing such great recordings to us all!
..."his" Angels in flame!
DOWNLOAD OPTIONS
Uploaded by
ArchivalAudio
on 1/25/2011
Views
932
Favorites
1
Reviews
1
PEOPLE ALSO FOUND
Infamous Stringdusters
by Infamous Stringdusters
931
1
1
( 1 reviews )
Source: FOB Audience Master
Infamous Stringdusters
by Infamous Stringdusters
511
1
2
( 2 reviews )
Source: 4 Mic Mix FOB
Jerry Joseph and the Jackmormons
by Jerry Joseph and the Jackmormons
287
0
0
Source: FOB Audience Master
Cowboy Junkies
by Cowboy Junkies
791
1
1
( 1 reviews )
Source: FOB AUD Milab VM-44-links DINa (17cm 90°) ~Head High ~ 18' from stage > ArchivalAudio ArchivalSilver XLR's> SD744T 24/96
Yonder Mountain String Band
by Yonder Mountain String Band
412
0
2
( 2 reviews )
Source: Milab VM-44-links DIN (20cm@90°) [no bodies] > Naiant(Milab)Tinybox > Sony M-10> 24bit/48khz)
Jerry Joseph and the Jackmormons
by Jerry Joseph and the Jackmormons
230
0
0
Source: FOB Audience Master
Hot Buttered Rum
by Hot Buttered Rum
954
1
1
( 1 reviews )
Source: FOB Audience Master
ArchivalAudio Favorites
129
ITEMS
0
VIEWS
0
Infamous Stringdusters
by Infamous Stringdusters
79
0
0
Source: AKG-C480B's (CK-61 cards) > Tascam HD-P2 > 24 bit/96 khz WAV
Infamous Stringdusters
by Infamous Stringdusters
170
0
0
Source: Ca11sChurch9100Pre Amp/24/96 Mircotrack1/Db Power 16/44/Wave, Merge/Cd Wave/Flac, Stand 9ft 20ft from stage middle of room